<?xml version="1.0" standalone="no"?>
<!DOCTYPE svg PUBLIC "-//W3C//DTD SVG 1.1//EN" "http://www.w3.org/Graphics/SVG/1.1/DTD/svg11.dtd" >
<svg>
<metadata>
Created by FontForge 20110222 at Mon Aug 18 04:28:42 2014
 By Orthosie Webhosting
Typeface (c) (your company). 2007. All Rights Reserved
</metadata>
<defs>
<font id="LionkinGRegular" horiz-adv-x="1014" >
  <font-face 
    font-family="LionkinGRegular"
    font-weight="400"
    font-stretch="normal"
    units-per-em="2048"
    panose-1="2 0 5 0 0 0 0 0 0 0"
    ascent="1638"
    descent="-410"
    x-height="1200"
    cap-height="1434"
    bbox="-342 -418 2048 1716"
    underline-thickness="150"
    underline-position="-142"
    unicode-range="U+0020-F002"
  />
<missing-glyph horiz-adv-x="1024" 
d="M100 0v1434h824v-1434h-824zM150 50h724v1334h-724v-1334zM325 1148q31 28 58 43q53 30 112 30q92 0 148 -47.5t56 -127.5q0 -49 -23 -98.5t-87 -129.5q-63 -80 -99 -132t-36 -99q0 -38 24 -133h-32q-35 97 -35 148q0 76 81.5 218t81.5 217q0 57 -33 90t-91 33
q-38 0 -69 -17q-26 -15 -56 -40v45zM389 334l57 58q11 10 20 10q10 0 22 -11l56 -60q9 -11 9 -20q0 -11 -10 -22l-56 -62q-14 -14 -21 -14q-11 0 -20 10l-61 71q-7 9 -7 18q0 10 11 22z" />
    <glyph glyph-name=".notdef" horiz-adv-x="1024" 
d="M100 0v1434h824v-1434h-824zM150 50h724v1334h-724v-1334zM325 1148q31 28 58 43q53 30 112 30q92 0 148 -47.5t56 -127.5q0 -49 -23 -98.5t-87 -129.5q-63 -80 -99 -132t-36 -99q0 -38 24 -133h-32q-35 97 -35 148q0 76 81.5 218t81.5 217q0 57 -33 90t-91 33
q-38 0 -69 -17q-26 -15 -56 -40v45zM389 334l57 58q11 10 20 10q10 0 22 -11l56 -60q9 -11 9 -20q0 -11 -10 -22l-56 -62q-14 -14 -21 -14q-11 0 -20 10l-61 71q-7 9 -7 18q0 10 11 22z" />
    <glyph glyph-name=".null" horiz-adv-x="0" 
 />
    <glyph glyph-name="nonmarkingreturn" horiz-adv-x="508" 
 />
    <glyph glyph-name="space" unicode=" " horiz-adv-x="500" 
d="M0 1179v21h537v-21h-537z" />
    <glyph glyph-name="space" unicode="&#xa0;" horiz-adv-x="500" 
d="M0 1179v21h537v-21h-537z" />
    <glyph glyph-name="exclam" unicode="!" horiz-adv-x="500" 
d="M221 150l-49 1036q0 46 21 69t62 23q42 0 62.5 -23t20.5 -69l-80 -1036h-37zM239 -6q-26 0 -43.5 17t-17.5 42t17.5 42t43.5 17t43.5 -17t17.5 -42t-17.5 -42t-43.5 -17z" />
    <glyph glyph-name="quotedbl" unicode="&#x22;" horiz-adv-x="672" 
d="M197 1108h-30l-62 359q-4 23 -4 33q0 37 20.5 57t59.5 20t60.5 -19.5t21.5 -56.5q0 -8 -4 -34zM509 1108h-30l-62 359q-4 23 -4 33q0 37 20.5 57t59.5 20t60.5 -19.5t21.5 -56.5q0 -8 -4 -34z" />
    <glyph glyph-name="numbersign" unicode="#" horiz-adv-x="1336" 
d="M596 859l-85 -290h242l86 290h-243zM673 1434h93l-141 -477h242l142 477h92l-141 -477h259l-29 -97h-259l-83 -290h279l-30 -98h-280l-140 -472h-92l139 472h-240l-142 -472h-92l140 472h-273l30 98h271l86 290h-295l29 97h295z" />
    <glyph glyph-name="dollar" unicode="$" 
d="M577 1552v-102q68 -8 141 -35q10 -6 19 -6q25 0 41 45h50l103 -282h-49q-60 134 -168 179q-74 30 -137 39v-540q241 -93 322.5 -183t81.5 -264q0 -197 -119.5 -300t-284.5 -120v-239h-73v237q-188 3 -266 38q-10 6 -19 6q-25 0 -41 -45h-50v331h49q50 -183 152.5 -226
t174.5 -43v635q-214 67 -299 153q-92 91 -92 249q0 166 125 271q105 88 266 102v100h73zM577 655v-610q125 17 211.5 96t86.5 219q0 116 -69 183q-62 59 -229 112zM504 873v520q-119 -5 -199 -72q-86 -73 -86 -182q0 -98 55 -153q52 -54 230 -113z" />
    <glyph glyph-name="percent" unicode="%" horiz-adv-x="1610" 
d="M449 1459q98 0 190.5 -49t144.5 -139.5t52 -190.5q0 -99 -50.5 -188.5t-143 -140t-193.5 -50.5q-100 0 -192.5 50.5t-143.5 140t-51 188.5q0 100 52 190.5t144.5 139.5t190.5 49zM206 1066q13 -92 55.5 -173.5t106.5 -124.5q57 -40 114 -40q7 0 13 1q63 3 115 53t73 136
q13 54 13 111q0 32 -4 65q-12 93 -56 175.5t-107 124.5q-58 38 -115 38h-11q-61 -3 -113 -52t-73 -135q-15 -58 -15 -117q0 -31 4 -62zM297 -29l940 1461h84l-938 -1461h-86zM1161 738q97 0 190 -49.5t145 -140t52 -189.5q0 -100 -50.5 -189.5t-143 -139.5t-193.5 -50
t-193 50t-143 139.5t-51 189.5q0 99 52 189.5t144.5 140t190.5 49.5zM918 344q13 -92 55.5 -173.5t106.5 -124.5q59 -39 116 -39h11q63 3 115 53t73 136q13 54 13 111q0 32 -4 65q-12 93 -56 175.5t-107 124.5q-58 38 -115 38h-11q-61 -3 -113 -52t-73 -135
q-15 -58 -15 -117q0 -31 4 -62z" />
    <glyph glyph-name="ampersand" unicode="&#x26;" horiz-adv-x="1683" 
d="M1051 196l-554 683q-118 0 -179.5 -86t-61.5 -204q0 -91 35.5 -181.5t101.5 -164.5q72 -83 165 -127t194 -44q88 0 169 33.5t130 90.5zM1394 0q-56 0 -139 25t-167 132q-67 -74 -175 -123.5t-241 -49.5q-229 0 -374.5 150.5t-145.5 385.5q0 161 76 266.5t225 151.5
q-42 61 -62.5 116t-20.5 111q0 105 77 197t182 92q68 0 142 -39q9 -6 18 -6q23 0 38 45h46l96 -281h-46q-55 133 -155 178q-85 37 -141 37q-65 0 -106 -45.5t-41 -117.5q0 -131 102 -267l531 -670q98 146 121 244q17 78 17 130q0 97 -62 97h-90v50h443v-50h-90
q-95 0 -145 -227q-31 -132 -155 -292q109 -136 248 -136h16q143 17 192 128l49 -1l-103 -231h-160z" />
    <glyph glyph-name="quotesingle" unicode="'" horiz-adv-x="346" 
d="M197 1108h-30l-62 359q-4 23 -4 33q0 37 20.5 57t59.5 20t60.5 -19.5t21.5 -56.5q0 -8 -4 -34z" />
    <glyph glyph-name="parenleft" unicode="(" horiz-adv-x="758" 
d="M252 601q2 277 99.5 530t268.5 442h80q-172 -242 -230 -438q-57 -193 -57 -523v-22q0 -330 57 -522q58 -196 230 -438h-80q-171 189 -268.5 441.5t-99.5 529.5z" />
    <glyph glyph-name="parenright" unicode=")" horiz-adv-x="758" 
d="M138 -370h-80q172 242 230 438q57 192 57 522v22q0 330 -57 523q-58 196 -230 438h80q171 -189 268.5 -442t99.5 -530q-2 -277 -99.5 -529.5t-268.5 -441.5z" />
    <glyph glyph-name="asterisk" unicode="*" horiz-adv-x="1024" 
d="M498 1294q-4 71 -37 130q-37 66 -37 84q0 32 23.5 51.5t62.5 19.5q37 0 61.5 -18t24.5 -47q0 -21 -36 -89q-33 -61 -37 -130q66 25 113 75q51 55 69 61q11 3 21 3q18 0 35 -10q26 -17 38 -53q6 -19 6 -36q0 -15 -4 -28q-10 -30 -38 -38q-6 -2 -19 -2q-25 0 -76 9
q-28 5 -55 5q-41 0 -81 -11q44 -55 105 -83q68 -32 79 -47q13 -18 13 -38q0 -9 -2 -17q-8 -30 -39 -53q-29 -22 -59 -22q-1 0 -1 1q-31 0 -48 23q-12 17 -22 94q-10 67 -47 125q-38 -58 -46 -124q-9 -75 -20 -90q-19 -25 -49 -27h-5q-28 0 -57 21q-30 21 -39 51q-4 10 -4 20
q0 17 11 32q13 17 83 51q61 29 105 82q-41 11 -80 11q-27 0 -53 -5q-54 -11 -78 -11q-9 0 -14 2q-30 9 -41 38q-6 13 -6 29q0 17 6 36q11 35 36 53q17 12 34 12q9 0 18 -3q20 -6 74 -62q47 -49 112 -75z" />
    <glyph glyph-name="plus" unicode="+" 
d="M437 647h-350v140h350v369l1 1h139v-370h349l1 -1v-139h-350v-370h-140v370z" />
    <glyph glyph-name="comma" unicode="," horiz-adv-x="557" 
d="M238 258q44 0 88.5 -65.5t44.5 -151.5q0 -109 -71 -226.5t-139 -117.5v43q73 43 87 190q0 119 -129 161v42z" />
    <glyph glyph-name="hyphen" unicode="-" horiz-adv-x="670" 
d="M156 409q-40 0 -40 28v83q0 29 41 29h356q41 0 41 -29v-83q0 -28 -40 -28h-358z" />
    <glyph glyph-name="hyphen" unicode="&#xad;" horiz-adv-x="670" 
d="M156 409q-40 0 -40 28v83q0 29 41 29h356q41 0 41 -29v-83q0 -28 -40 -28h-358z" />
    <glyph glyph-name="period" unicode="." horiz-adv-x="557" 
d="M145 167l82 84q15 14 29 14q13 0 31 -16l80 -86q12 -16 12 -29q0 -15 -14 -31l-80 -88q-20 -20 -29 -20q-16 0 -29 14l-88 101q-10 13 -10 26q0 15 16 31z" />
    <glyph glyph-name="slash" unicode="/" horiz-adv-x="569" 
d="M93 -50h-80l541 1484h80z" />
    <glyph glyph-name="zero" unicode="0" 
d="M507 1459q108 0 211 -96t161 -274t58 -372t-56.5 -370t-159 -274t-214.5 -98t-214.5 98t-159 274t-56.5 370t57.5 372t160.5 274t212 96zM237 689q14 -180 61.5 -340t118.5 -244q65 -78 129 -78q6 0 12 1q70 7 127.5 104.5t81.5 265.5q15 107 15 220q0 62 -5 126
q-14 181 -62.5 343t-119.5 244q-65 76 -128 76q-6 0 -11 -1q-68 -7 -126 -102.5t-82 -264.5q-16 -110 -16 -225q0 -62 5 -125z" />
    <glyph glyph-name="one" unicode="1" 
d="M234 0v50h96q103 0 103 235v794q0 129 -117 129h-98v50q292 63 327 176h50v-1149q0 -235 103 -235h96v-50h-560z" />
    <glyph glyph-name="two" unicode="2" 
d="M722 1036q0 148 -86 245t-186 97q-170 0 -275 -131h-22v49q39 50 115 104t185 54q183 0 306.5 -121t123.5 -297q0 -262 -627 -916h422q130 0 209 112h49l-103 -232h-719l1 50q607 675 607 986z" />
    <glyph glyph-name="three" unicode="3" 
d="M435 22q151 0 218 116.5t67 280.5q0 104 -44.5 205.5t-176.5 148.5v19q81 45 144 120.5t63 209.5q0 110 -55 189.5t-166 92.5q-68 0 -123.5 -45t-55.5 -111h-42v159q0 20 73.5 33.5t155.5 13.5q155 0 257 -84t102 -249q0 -87 -61 -166t-193 -139q93 -14 195 -134.5
t102 -278.5q0 -163 -144 -294t-325 -131q-152 0 -247.5 39t-95.5 88v100h49q0 -83 86 -133t217 -50z" />
    <glyph glyph-name="four" unicode="4" 
d="M600 438v686l-424 -686h424zM737 338v-171q0 -117 72 -117h76v-50h-442v50h76q81 0 81 120v168h-557v35l660 1061h34v-996h19q133 0 193 132h49l-103 -232h-158z" />
    <glyph glyph-name="five" unicode="5" 
d="M229 852l144 582h396q103 0 112 52h50l-63 -172h-429l-104 -415q226 0 388 -124.5t162 -300.5q0 -234 -143.5 -365t-324.5 -131q-152 0 -248 39q-92 37 -92 82v106h46q0 -88 86 -135.5t217 -47.5q151 0 217.5 116.5t66.5 347.5q0 159 -110 265t-285 106q-40 0 -86 -5z
" />
    <glyph glyph-name="six" unicode="6" 
d="M558 11q101 0 163 98.5t62 247.5q0 203 -100 333.5t-216 130.5q-91 0 -163 -101.5t-72 -250.5q0 -153 95.5 -305.5t230.5 -152.5zM801 1459v-48q-177 -12 -326.5 -179.5t-233.5 -467.5q96 93 266 93q108 0 211 -57t161 -162.5t58 -221.5t-56.5 -220.5t-144 -162.5
t-169.5 -58q-243 0 -366.5 162.5t-123.5 372.5q0 320 209 634.5t515 314.5z" />
    <glyph glyph-name="seven" unicode="7" 
d="M737 1314h-399q-133 0 -192 -112h-50l103 232h719l-1 -50q-370 -866 -370 -1205q0 -129 67 -129h117v-50h-411v50h67q72 0 72 131q19 296 278 1133z" />
    <glyph glyph-name="eight" unicode="8" 
d="M552 830q121 25 156 124q27 75 27 140q0 20 -3 39q-12 81 -52.5 154t-99.5 110q-55 33 -106 33h-9q-57 -3 -105.5 -46t-68.5 -119q-13 -49 -13 -100q0 -28 4 -57q12 -80 51.5 -152t218.5 -126zM472 785q-114 -21 -181 -157q-56 -115 -56 -206q0 -18 2 -35
q14 -104 61.5 -196.5t118.5 -140.5q64 -44 128 -44h13q70 4 127.5 60t81.5 153q15 62 15 127q0 36 -5 73q-11 112 -73.5 212.5t-231.5 153.5zM636 811q42 -14 82 -35q103 -56 161 -158.5t58 -214.5t-56.5 -213.5t-159 -158t-214.5 -56.5t-214.5 56.5t-159 158t-56.5 213.5
t57.5 214.5t160.5 158.5q41 21 82 35q-24 9 -48 21q-86 44 -133 123t-47 166t48 167t133.5 123t176.5 43q90 0 176 -43t134 -123t48 -167t-47 -166t-132 -123q-25 -13 -50 -21z" />
    <glyph glyph-name="nine" unicode="9" 
d="M456 1423q-101 0 -162.5 -98.5t-61.5 -247.5q0 -203 100 -333.5t215 -130.5q91 0 163.5 101.5t72.5 250.5q0 153 -96 305.5t-231 152.5zM213 -25v48q177 12 326.5 179.5t233.5 467.5q-95 -93 -266 -93q-108 0 -211 57t-161 162.5t-58 221.5t56.5 220.5t144 162.5
t169.5 58q243 0 366.5 -162.5t123.5 -372.5q0 -320 -209 -634.5t-515 -314.5z" />
    <glyph glyph-name="colon" unicode=":" horiz-adv-x="557" 
d="M145 167l82 84q15 14 29 14q13 0 31 -16l80 -86q12 -16 12 -29q0 -15 -14 -31l-80 -88q-20 -20 -29 -20q-16 0 -29 14l-88 101q-10 13 -10 26q0 15 16 31zM145 860l82 84q15 14 29 14q13 0 31 -16l80 -86q12 -16 12 -29q0 -15 -14 -31l-80 -88q-20 -20 -29 -20
q-16 0 -29 14l-88 101q-10 13 -10 26q0 15 16 31z" />
    <glyph glyph-name="semicolon" unicode=";" horiz-adv-x="557" 
d="M145 859l82 84q15 14 29 14q13 0 31 -16l80 -86q12 -16 12 -29q0 -15 -14 -31l-80 -88q-20 -20 -29 -20q-16 0 -29 14l-88 101q-10 13 -10 26q0 15 16 31zM238 258q44 0 88.5 -65.5t44.5 -151.5q0 -109 -71 -226.5t-139 -117.5v43q73 43 87 190q0 119 -129 161v42z" />
    <glyph glyph-name="semicolon" unicode="&#x37e;" horiz-adv-x="557" 
d="M145 859l82 84q15 14 29 14q13 0 31 -16l80 -86q12 -16 12 -29q0 -15 -14 -31l-80 -88q-20 -20 -29 -20q-16 0 -29 14l-88 101q-10 13 -10 26q0 15 16 31zM238 258q44 0 88.5 -65.5t44.5 -151.5q0 -109 -71 -226.5t-139 -117.5v43q73 43 87 190q0 119 -129 161v42z" />
    <glyph glyph-name="less" unicode="&#x3c;" 
d="M927 1074l-625 -359l625 -355v-167l-840 481v83l840 484v-167z" />
    <glyph glyph-name="equal" unicode="=" 
d="M87 631h840v-140h-840v140zM87 943h840v-140h-840v140z" />
    <glyph glyph-name="greater" unicode="&#x3e;" 
d="M87 1241l840 -484v-83l-840 -481v167l625 355l-625 359v167z" />
    <glyph glyph-name="question" unicode="?" horiz-adv-x="748" 
d="M100 1173q128 104 242 104q132 0 212 -68t80 -182q0 -69 -32.5 -140t-128.5 -168.5t-155 -171.5t-58 -238q-2 -115 30 -119v-8h-97v8q30 3 29 130v73q0 109 124.5 308t141 299.5t-49.5 177t-175 48t-125 -185.5h-38v133zM252 0q-22 0 -37 15t-15 38q0 22 15 37t37 15
q21 0 36 -15t15 -37q0 -23 -15 -38t-36 -15z" />
    <glyph glyph-name="at" unicode="@" horiz-adv-x="2019" 
d="M972 622q-83 -10 -151 -80t-68 -199q0 -107 64 -194t183 -87q97 5 126 167v476q-54 -63 -154 -83zM1360 29q-63 1 -100.5 18t-61.5 54q-29 -37 -82 -64.5t-133 -27.5q-144 0 -256.5 100.5t-112.5 233.5q1 87 53 166.5t132.5 115t173.5 49.5q67 16 110 42.5t43 74.5
q-2 69 -41 125t-129 56q-72 0 -121.5 -59t-50.5 -125h-45v159q0 20 72 40q73 20 178 20q109 -2 193.5 -64.5t84.5 -157.5v-589q0 -117 94 -117q185 35 267 191.5t82 382.5q-20 335 -232 540q-197 188 -480 188q-205 0 -392.5 -137.5t-269.5 -355.5q-67 -178 -67 -361
q0 -313 129.5 -511.5t305 -290.5t318.5 -92q274 0 575 208v-75q-263 -184 -571 -184q-240 0 -461 122.5t-343 342t-122 461.5t124 464.5t345.5 342t456.5 119.5q362 0 609 -230t247 -566q0 -270 -176 -439q-175 -168 -346 -170z" />
    <glyph glyph-name="A" unicode="A" horiz-adv-x="1600" 
d="M210 226l267 604l133 302l82 217q8 33 -16.5 52.5t-43.5 17.5v15h234v-15q-23 8 -40.5 -16.5t10.5 -81.5l19 -38l69 -151l137 -302l275 -605q100 -225 204 -210v-15h-285h-286v15q118 -1 150 48t-19 162l-103 234v0h-591l-69 -160q-72 -161 -58 -223.5t169 -60.5v-15
h-224h-224v15q92 9 122.5 47t87.5 164zM432 527l539 -1l-271 645z" />
    <glyph glyph-name="B" unicode="B" horiz-adv-x="1326" 
d="M0 1434h627q296 0 445.5 -89t149.5 -265q0 -169 -122 -255q-72 -51 -189 -71q136 -25 225 -77q163 -97 163 -290q0 -192 -154.5 -289.5t-461.5 -97.5h-683v15q150 2 180 50q31 49 31 164v976q-8 159 -75 190q-63 29 -136 25v14zM451 1262v-472h206q173 0 257 66.5
t84 204.5q-13 198 -130 274.5t-252.5 65t-150 -48.5t-14.5 -90zM451 705v-513q0 -66 28 -112.5t218 -41.5t270.5 99.5t80.5 253.5q0 160 -121 237t-369 77h-107z" />
    <glyph glyph-name="C" unicode="C" horiz-adv-x="1399" 
d="M238 115q-34 24 -64 52q-214 198 -214 532q0 321 210 526.5t535 205.5q158 0 352 -62q54 -18 104 -6.5t74 23.5h33v-404h-23q-55 192 -191.5 278.5t-311.5 86.5q-247 0 -388.5 -173t-141.5 -476q0 -295 144 -466l-1 2q150 -154 391 -154q145 0 268.5 53t243.5 167l41 -40
q-126 -139 -276.5 -207t-330.5 -68q-273 0 -456 132z" />
    <glyph glyph-name="D" unicode="D" horiz-adv-x="1400" 
d="M0 1434h520q413 0 629.5 -184t216.5 -534q0 -335 -215 -525.5t-594 -190.5h-557v16q120 2 150 46t26 167v976q0 113 -25 163q-26 50 -151 50v16zM389 201q0 -66 19 -120.5t232 -43.5t359.5 193t146.5 486q0 305 -173 493t-373 194.5t-205.5 -41t-5.5 -102.5v-1059z" />
    <glyph glyph-name="E" unicode="E" horiz-adv-x="1200" 
d="M800 0h229l133 200h-17q-86 -98 -202 -100h-143v-100zM800 0h-797v15q75 -5 127.5 43t52.5 171v976q2 116 -39 162.5t-141 51.5v15h1067q25 2 26 -16l1 -299h-15q-10 125 -89 180t-267 53h-261q-44 0 -58.5 -15.5t-14.5 -62.5v-478h295q137 4 204 43q64 45 70 151h16
v-480h-18q-25 119 -85 165q-64 33 -187 32h-295v-525q8 -82 94 -82h314v-100z" />
    <glyph glyph-name="F" unicode="F" horiz-adv-x="1127" 
d="M389 229q0 -15 1 -29q4 -91 42 -138.5t155 -46.5v-15h-587v15q93 -3 136.5 48t43.5 166v976q2 116 -39 162.5t-141 51.5v15h1067q25 2 26 -16l1 -299h-15q-10 125 -89 180t-267 53h-261q-44 0 -58.5 -15.5t-14.5 -62.5v-478h295q137 4 204 43q64 45 70 151h16v-480h-18
q-25 119 -85 165q-64 33 -187 32h-295v-478z" />
    <glyph glyph-name="G" unicode="G" horiz-adv-x="1400" 
d="M1075 423q-1 121 -48 163q-49 45 -142 36v15h555v-16q-78 4 -117 -37q-31 -33 -35 -124v-350q-266 -140 -541 -141q-360 0 -573.5 198t-213.5 532q0 321 210 526.5t535 205.5q158 0 352 -62q54 -18 104 -6.5t74 23.5h33v-404h-23q-55 192 -191.5 278.5t-311.5 86.5
q-247 0 -388.5 -173t-141.5 -476q0 -301 150 -473.5t412 -172.5q134 1 245 48q31 13 43.5 33t12.5 56v234z" />
    <glyph glyph-name="H" unicode="H" horiz-adv-x="1437" 
d="M191 225v959q0 113 -49.5 159.5t-141.5 50.5v15h304h303v-15q-112 5 -159.5 -46t-47.5 -164v-422v0h621v0v422q0 113 -60.5 162.5t-146.5 47.5v15h302h302v-16q-79 6 -133.5 -45t-54.5 -164v-959q-3 -116 45.5 -165.5t142.5 -44.5l1 -15h-302h-301l-1 15q95 -2 150 41.5
t56 168.5v449v0h-621v0v-449q0 -113 53 -160.5t154 -49.5v-15h-302h-305v15q87 0 139 48.5t52 161.5z" />
    <glyph glyph-name="I" unicode="I" horiz-adv-x="700" 
d="M657 1416v18h-502h-155v-18q154 0 186 -21t38 -65v-650v-326v-162v-51q2 -78 -30 -102t-194 -21v-18h657v18q-177 1 -201.5 35.5t-22.5 87.5v51v162v326v650q-2 40 24.5 64.5t199.5 21.5z" />
    <glyph glyph-name="J" unicode="J" horiz-adv-x="1000" 
d="M385 1419h582v-17q-91 -5 -112 -15q-28 -13 -43.5 -39.5t-13.5 -158.5v-847q-4 -219 -87.5 -312.5t-216.5 -98.5l-30 -2h-21q-103 1 -170 16q-92 19 -134.5 69t-45.5 104t-8 115t-85 49v21h388l1 -21q-82 14 -95 -57q-13 -70 12 -161q34 -92 127 -91q22 -4 72 9
q46 29 64.5 76t15.5 106v1035q15 176 -57 184.5t-143 16.5v19z" />
    <glyph glyph-name="K" unicode="K" horiz-adv-x="1431" 
d="M668 0h-669v15q133 1 180 45t48 169v976q1 129 -57 171.5t-170 42.5v15h668v-14q-99 -1 -159 -47q-69 -53 -69 -168v-457l400 381q194 167 161.5 231t-165.5 59v15h546v-15q-107 3 -152.5 -29t-188.5 -180l-487 -477l535 -588q139 -139 281 -130v-15h-523v15
q150 5 164 30.5t-156 211.5l-190 197l-96 99l-48 49l-24 25l-12 12q-12 15 -29 0l-16 -14v-396q0 -115 61 -165q53 -45 167 -48v-16z" />
    <glyph glyph-name="L" unicode="L" horiz-adv-x="1167" 
d="M0 1419q165 0 188 -22.5t27 -75.5v-1205q3 -51 -29.5 -76t-185.5 -25v-15h1034l133 200h-17q-86 -98 -206 -91h-511q-16 0 -16 20v139l-1 159v895q6 45 25 68t75 29l115 1v14h-631v-15z" />
    <glyph glyph-name="M" unicode="M" horiz-adv-x="1769" 
d="M288 309q0 -190 39.5 -239.5t158.5 -54.5v-15h-243h-243v14q100 0 150 63.5t48 231.5v791q2 200 -52.5 246t-145.5 48v15h203h204v0l474 -1065v0v0l455 1065v0h203h204v-15q-110 1 -144 -43t-34 -167v-959q0 -113 35.5 -162.5t142.5 -47.5v-15h-292h-293v15
q113 0 156.5 50.5t41.5 159.5v990v0l-518 -1215h-16h-16l-518 1165v0v-856z" />
    <glyph glyph-name="N" unicode="N" horiz-adv-x="1661" 
d="M0 4v43v-43zM0 15q133 -1 163 64.5t31 234.5v971q-9 129 -194 134v15h363q24 0 39 -16l15 -16l446 -484l475 -517v719q0 166 -49.5 236t-143.5 64v14h498v-15q-112 7 -153.5 -62.5t-41.5 -236.5v-1143h-38l-1106 1199v-862q0 -167 33 -234t160 -66v-14h-497v15z" />
    <glyph glyph-name="O" unicode="O" horiz-adv-x="1614" 
d="M807 0q-353 0 -580 200.5t-227 512.5q0 313 227 514t580 201q354 0 581 -201t227 -514q0 -312 -227 -512.5t-581 -200.5v0zM783 74q241 26 383.5 176t183.5 461q-41 390 -203.5 515t-363.5 128q-193 -3 -351 -144.5t-194 -498.5q25 -311 168.5 -461t376.5 -176v0z" />
    <glyph glyph-name="P" unicode="P" horiz-adv-x="1072" 
d="M174 225v959q3 105 -21 156t-153 59v10h278v0h258q253 0 397 -100t144 -274q0 -205 -138.5 -312.5t-402.5 -107.5q-83 0 -153 5v-395q-2 -99 21 -153t177 -58v-14h-290h-291v15q125 1 151 59t23 151zM387 701q67 -72 197 -59t217 115.5t87 270.5q0 148 -105 250
t-225 105.5t-146 -34t-25 -92.5v-556z" />
    <glyph glyph-name="Q" unicode="Q" horiz-adv-x="1434" 
d="M1434 -398q-371 -17 -590 83q-185 84 -347 290v0q-172 46 -299 179q-198 205 -198 526q0 320 197.5 526t505.5 206q309 0 506.5 -206t197.5 -526q0 -321 -198 -526q-149 -156 -362 -193v0q107 -140 233 -219q166 -105 354 -117v-23zM368.5 1181q-122.5 -194 -122.5 -501
q0 -306 115 -493t339 -187q226 14 343.5 194t117.5 486q0 307 -121 495t-340 198q-209 2 -331.5 -192z" />
    <glyph glyph-name="R" unicode="R" horiz-adv-x="1354" 
d="M383 712q51 -5 163 1.5t214 87.5t102 241q0 142 -109.5 240t-224 103t-131.5 -34.5t-14 -110.5v-528zM766 684l330 -451q87 -118 139.5 -167t106.5 -51v-15h-289q-42 0 -65 34l-25 36l-189 270l-226 323l-154 -8q-5 -1 -11 -1v-429q-4 -119 41 -165.5t157 -44.5v-15h-581
v15q108 4 141 50.5t33 159.5v959q1 116 -48.5 162.5t-125.5 46.5v16h576q238 0 373 -98t135 -271q0 -179 -147 -280q-72 -50 -171 -76z" />
    <glyph glyph-name="S" unicode="S" horiz-adv-x="1085" 
d="M990 983q-116 257 -243.5 345t-263.5 73.5t-193.5 -88t-45 -163t77.5 -165t234 -156.5q303 -137 404 -233q105 -91 105 -227q0 -167 -140.5 -274t-359.5 -107q-193 -2 -323 55q-27 15 -59.5 7.5t-66.5 -50.5h-27l-89 431v0h28q88 -186 217.5 -296t301 -109t235 82.5
t59.5 183.5t-92 178q-74 74 -278 176q-236 118 -319 207q-84 88 -84 220q0 154 120 253t307 99q114 0 268 -57q47 -13 83 -6t63 47l40 -1l69 -425v0h-28z" />
    <glyph glyph-name="T" unicode="T" horiz-adv-x="1400" 
d="M562 226l-1 1116h-350q-173 -25 -181 -294h-30v364h683v0h671v0l5 -182l7 -182h-29q-45 170 -106.5 230t-143.5 64h-282l-1 -1116q0 -114 48 -160.5t177 -50.5v-15h-344h-345v15q126 0 174 48.5t48 162.5z" />
    <glyph glyph-name="U" unicode="U" horiz-adv-x="1437" 
d="M1223 511q1 -271 -128 -405t-390 -134q-264 0 -391 132t-128 407v673q6 116 -52.5 163.5t-133.5 46.5v15h296h297v-20q-93 10 -145.5 -41t-52.5 -164v-697q0 -220 80.5 -348t230 -136.5t288.5 132t139 352.5v614q0 164 -59.5 228t-138.5 65v15h240h240v-15
q-82 5 -137 -62t-55 -231v-590z" />
    <glyph glyph-name="V" unicode="V" horiz-adv-x="1456" 
d="M205 1184q-73 155 -110 183.5t-95 26.5v15h271h272v-15q-77 2 -121 -38t2 -172l367 -884v0v0l300 810q60 159 26.5 219.5t-133.5 64.5v15h205h206v-15q-75 -1 -105.5 -48.5t-75.5 -161.5l-460 -1206h-16h-16z" />
    <glyph glyph-name="W" unicode="W" horiz-adv-x="1928" 
d="M641 -22h-32l-419 1206q-41 113 -75.5 160.5t-114.5 49.5v15h537v-15q-92 0 -132 -49t1 -161l283 -810l219 637l-64 173q-43 113 -82.5 160.5t-124.5 49.5v15h553v-16q-99 2 -135 -47t7 -162l293 -804l241 730q52 159 14 222t-131 63v14h417v-15q-84 -1 -108 -49
t-65 -161l-412 -1206h-32l-323 895z" />
    <glyph glyph-name="X" unicode="X" horiz-adv-x="1431" 
d="M252 225l359 470v0l-310 470q-78 117 -154 171t-147 56v16h332h302v-16q-103 2 -134.5 -67t68.5 -216l168 -250v0v0l231 302q90 113 68.5 174t-130.5 58v15h241h264v-15q-71 3 -147 -47t-165 -163l-309 -403v0l372 -555q76 -132 119 -165.5t130 -44.5v-15h-305h-306v15
q95 4 135.5 64.5t-65.5 219.5l-206 315v0v0l-241 -315q-114 -145 -103 -200.5t154 -58.5v-40h-236h-237v15q66 1 116 45.5t136 164.5z" />
    <glyph glyph-name="Y" unicode="Y" horiz-adv-x="1333" 
d="M760 673l1 -2l-13 -19v-427q0 -113 38.5 -161.5t159.5 -47.5v-16h-544v15q108 1 153 49t45 161v396l-367 562q-73 113 -124 163t-109 47v15h534v-16q-109 0 -130 -51.5t50 -171.5l214 -357l41 -61l200 339q101 169 75.5 235t-116.5 67v16h441v-17q-80 1 -126 -50.5
t-121 -171.5z" />
    <glyph glyph-name="Z" unicode="Z" horiz-adv-x="1188" 
d="M28 71l4 7l873 1275h-309q-307 1 -399 -45t-135 -261h-14l19 183l19 184h1093v-33l-902 -1302l-15 -15l-6 -6l328 1q308 -1 400 43t135 251h14l-19 -176l-19 -177h-1095v32l27 38z" />
    <glyph glyph-name="bracketleft" unicode="[" horiz-adv-x="758" 
 />
    <glyph glyph-name="backslash" unicode="\" horiz-adv-x="569" 
 />
    <glyph glyph-name="bracketright" unicode="]" horiz-adv-x="758" 
 />
    <glyph glyph-name="asciicircum" unicode="^" 
 />
    <glyph glyph-name="underscore" unicode="_" horiz-adv-x="1024" 
d="M0 -100h1024v-60h-1024v60z" />
    <glyph glyph-name="grave" unicode="`" horiz-adv-x="1024" 
d="M673 1079h-69l-330 202q-31 20 -46.5 40t-15.5 42q0 31 20.5 51t53.5 20q20 0 40.5 -12t55.5 -47z" />
    <glyph glyph-name="a" unicode="a" horiz-adv-x="1256" 
d="M165 174l208 462l104 232l64 166q6 25 -13 40t-34 14v11h183v-11q-18 6 -32 -13t9 -63l15 -29l53 -116l108 -231l215 -463q78 -173 159 -162v-11h-223h-223v11q92 -1 117 37t-15 125l-81 179v0h-461l-55 -123q-56 -123 -45 -171t132 -47v-11h-175h-175v11q72 7 96 36.5
t69 126.5zM338 404l421 -1l-212 494zM0 1179v21h1257v-21h-1257z" />
    <glyph glyph-name="b" unicode="b" horiz-adv-x="1100" 
d="M0 1099h532q251 0 378 -68t127 -203q0 -130 -103 -196q-62 -39 -161 -54q115 -19 191 -59q138 -74 138 -222t-131.5 -222.5t-390.5 -74.5h-580v12q127 1 152 38q27 37 27 126v747q-7 122 -64 146q-53 23 -115 19v11zM407 967v-362h185q156 0 232 51t76 157
q-12 152 -117.5 210.5t-227.5 50t-135 -37t-13 -69.5zM407 540v-393q0 -50 25 -86t196.5 -32t244 76.5t72.5 194.5t-109 181t-333 59h-96zM0 1179v21h1100v-21h-1100z" />
    <glyph glyph-name="c" unicode="c" horiz-adv-x="1200" 
d="M251 85q-29 18 -55 40q-187 152 -187 409q0 246 183 404t466 158q138 0 307 -48q47 -13 90.5 -4.5t64.5 17.5h29v-310h-20q-48 148 -167 214t-271 66q-216 0 -339 -132.5t-123 -365.5q0 -227 125 -358l-1 1q131 -118 341 -118q126 0 234 40.5t212 128.5l36 -31
q-110 -107 -241 -159t-288 -52q-238 0 -397 101zM0 1179v21h1357v-21h-1357z" />
    <glyph glyph-name="d" unicode="d" horiz-adv-x="1253" 
d="M0 1099h466q371 0 565 -141t194 -409q0 -257 -193 -403t-532 -146h-500v12q107 1 134 35t24 129v747q0 87 -23 126q-23 38 -135 38v12zM354 154q0 -50 17.5 -92t211.5 -34t327 148t133 373t-157.5 377.5t-339.5 149t-187 -32t-5 -78.5v-811zM0 1179v21h1258v-21h-1258z
" />
    <glyph glyph-name="e" unicode="e" horiz-adv-x="1200" 
d="M800 0h229l133 153h-17q-86 -75 -202 -76h-143v-77zM800 0h-797v11q75 -3 127.5 33.5t52.5 131.5v747q2 89 -39 125t-141 40v11h1067q25 2 26 -12l1 -229h-15q-10 95 -89 137.5t-267 40.5h-261q-44 0 -58.5 -12t-14.5 -48v-366h295q137 3 204 33q64 34 70 116h16v-368
h-18q-25 91 -85 126q-64 26 -187 25h-295v-403q8 -62 94 -62h314v-77zM0 1179v21h1258v-21h-1258z" />
    <glyph glyph-name="f" unicode="f" horiz-adv-x="1130" 
d="M389 175q0 -11 1 -22q4 -70 42 -106t155 -36v-11h-587v11q93 -2 136.5 37t43.5 127v746q2 89 -39 124.5t-141 39.5v11h1067q25 2 26 -12l1 -229h-15q-10 96 -89 138t-267 40h-261q-44 0 -58.5 -11.5t-14.5 -47.5v-366h295q137 3 204 33q64 35 70 116h16v-367h-18
q-25 91 -85 126q-64 25 -187 24h-295v-365zM0 1179v21h1258v-21h-1258z" />
    <glyph glyph-name="g" unicode="g" horiz-adv-x="1200" 
d="M971 341q-1 91 -42 123q-43 33 -124 27v11h485v-12q-68 3 -102 -28q-27 -25 -30 -93v-263q-233 -105 -473 -106q-315 0 -501.5 149t-186.5 400q0 241 183.5 395.5t467.5 154.5q138 0 307 -47q48 -13 91.5 -4.5t64.5 17.5h29v-304h-21q-47 145 -166.5 210t-272.5 65
q-216 0 -339.5 -130t-123.5 -358q0 -226 131 -356t360 -130q117 1 214 36q27 10 38 25t11 42v176zM0 1179v21h1204v-21h-1204z" />
    <glyph glyph-name="h" unicode="h" horiz-adv-x="1265" 
d="M167 176v747q0 88 -43.5 124.5t-123.5 40.5v11h265h264v-11q-97 4 -138.5 -36.5t-41.5 -128.5v-329v0h541v0v329q0 88 -52.5 127t-127.5 38v11h263h263v-12q-69 5 -116.5 -35.5t-47.5 -128.5v-747q-2 -91 40 -130t124 -35l1 -11h-263h-263l-1 11q83 -1 131 33t49 132v350
v0h-541v0v-350q0 -88 46 -125.5t134 -39.5v-11h-263h-266v11q76 0 121.5 38.5t45.5 126.5zM0 1179v21h1389v-21h-1389z" />
    <glyph glyph-name="i" unicode="i" horiz-adv-x="531" 
d="M513 14q-124 5 -146.5 31t-23.5 63v911q-2 31 20 50q21 17 150 16v14h-513v-14q115 -1 139 -15q26 -17 31 -51v-911q3 -32 -25 -61.5t-145 -32.5v-14h513v14zM545 1179h-545v21h545v-21z" />
    <glyph glyph-name="j" unicode="j" horiz-adv-x="1000" 
d="M385 1099h582v-13q-91 -4 -112 -12q-28 -11 -43.5 -31.5t-13.5 -123.5v-666q-4 -171 -87.5 -244.5t-216.5 -77.5l-30 -2h-21q-103 1 -170 13q-92 15 -134.5 54t-45.5 81.5t-8 90t-85 38.5v16h388l1 -16q-82 11 -95 -44q-13 -56 12 -127q34 -72 127 -71q22 -3 72 7
q46 22 64.5 59t15.5 83v814q15 137 -57 144t-143 13v15zM0 1179v21h1054v-21h-1054z" />
    <glyph glyph-name="k" unicode="k" horiz-adv-x="1271" 
d="M1200 0h-455v12q128 4 141 23q11 19 -139 161l-171 151l-85 76l-43 37l-21 20l-11 9q-11 11 -26 0l-14 -11v-303q0 -88 55 -127q43 -31 133 -35v-13h-564v12q105 3 143 34q42 33 43 129v746q1 98 -50 131q-48 29 -136 32v12h564v-11q-78 -4 -127 -36q-61 -40 -61 -128
v-349l357 291q173 128 144 177q-27 45 -132 44v12h455v-12q-82 1 -120 -22q-40 -24 -168 -137l-434 -365l477 -449q122 -104 245 -99v-12zM0 1179v21h1271v-21h-1271z" />
    <glyph glyph-name="l" unicode="l" horiz-adv-x="1015" 
d="M15 0h890l117 153h-15q-75 -75 -180 -70h-448q-13 0 -13 16v106l-1 122v686q-1 21 38 48q33 24 135 24v14h-523v-14q106 1 138 -15.5t35 -57.5v-923q-8 -43 -46.5 -57.5t-126.5 -17.5v-14zM1096 1179h-1107v21h1107v-21z" />
    <glyph glyph-name="m" unicode="m" horiz-adv-x="1434" 
d="M231 241q0 -148 32 -187t127 -43v-11h-195h-195v11q80 0 120.5 49.5t38.5 180.5v617q2 156 -42 192t-117 38v11h163h164v0l381 -831v0v0l365 831v0h163h164v-11q-88 0 -115.5 -34.5t-27.5 -130.5v-747q0 -88 28.5 -127t114.5 -38v-11h-235h-235v11q91 0 126 40t33 125
v771v0l-416 -947h-13h-13l-416 909v0v-668zM-2 1179v21h1476v-21h-1476z" />
    <glyph glyph-name="n" unicode="n" horiz-adv-x="1474" 
d="M1026 1099h426v-14q-70 -3 -117 -51t-47 -175v-878h-34l-992 921v-662q0 -128 47 -179.5t127 -48.5v-14h-436v14q107 6 137 52.5t27 175.5v745q-6 59 -56.5 78.5t-107.5 20.5v15h315q22 0 35 -13l14 -12l399 -371l427 -397v553q2 128 -42.5 177t-121.5 50v13zM-2 1179v21
h1476v-21h-1476z" />
    <glyph glyph-name="o" unicode="o" horiz-adv-x="1200" 
d="M1026 531q0 266 -123 373t-305 107t-296.5 -107t-114.5 -373q0 -235 114.5 -355.5t296.5 -120.5t305 119t123 357zM0 549q0 241 168 396t430 155q263 0 431 -155t168 -396q0 -242 -168 -396.5t-431 -154.5q-262 0 -430 154.5t-168 396.5zM-12 1179v21h1222v-21h-1222z
" />
    <glyph glyph-name="p" unicode="p" horiz-adv-x="1100" 
d="M174 176v747q3 82 -21 122t-153 47v7h278v0h258q253 0 397 -78t144 -214q0 -159 -138.5 -243t-402.5 -84q-83 0 -153 4v-308q-2 -78 21 -120t177 -45v-11h-290h-291v11q125 1 151 46.5t23 118.5zM387 546q67 -55 197 -45t217 90t87 211q0 115 -105 194.5t-225 82.5
t-146 -26.5t-25 -72.5v-434zM-102 1179v21h1339v-21h-1339z" />
    <glyph glyph-name="q" unicode="q" horiz-adv-x="1231" 
d="M1228 -398q-318 -14 -506 68q-158 70 -296 241v0q-148 37 -257 147q-169 170 -169 435t169 435.5t433 170.5t433.5 -170.5t169.5 -435.5t-170 -435q-127 -129 -310 -159v0q92 -116 200 -181q142 -87 303 -97v-19zM315.5 908q-104.5 -161 -104.5 -415q0 -253 98 -407.5
t290 -154.5q194 12 294.5 160.5t100.5 401.5q0 254 -103.5 410t-291.5 164q-179 2 -283.5 -159zM-165 1179v21h1452v-21h-1452z" />
    <glyph glyph-name="r" unicode="r" horiz-adv-x="1200" 
d="M-102 1179v21h1339v-21h-1339zM342 555q45 -4 145 1.5t191 68.5t91 188q0 111 -97.5 187t-200 80t-117.5 -26.5t-12 -86.5v-412zM683 533l295 -351q77 -92 124 -130.5t95 -39.5v-12h-258q-37 0 -58 27l-22 28l-169 210l-201 252l-138 -6q-4 -1 -9 -1v-335
q-4 -92 36 -128.5t140 -34.5v-12h-518v12q96 3 125.5 39t29.5 124v749q1 90 -43 126.5t-112 36.5v12h514q212 0 332.5 -76.5t120.5 -211.5q0 -139 -131 -218q-65 -39 -153 -60z" />
    <glyph glyph-name="s" unicode="s" horiz-adv-x="1167" 
d="M-102 1179v21h1339v-21h-1339zM1064 755q-124 198 -261 266t-283.5 57t-208.5 -68t-48.5 -125.5t83.5 -127t251 -120.5q326 -106 435 -180q113 -70 113 -175q0 -129 -151 -211.5t-387 -82.5q-207 -2 -347 42q-29 12 -63.5 6t-72.5 -39h-28l-96 333v0h30
q94 -144 233.5 -229t324 -84t253 63.5t64 141.5t-99.5 137q-79 58 -298 136q-254 91 -344 160q-90 68 -90 169q0 120 129 196t331 76q122 0 287 -44q51 -10 89.5 -4.5t67.5 35.5h44l73 -328v0h-30z" />
    <glyph glyph-name="t" unicode="t" horiz-adv-x="1400" 
d="M-102 1179v21h1553v-21h-1553zM562 176l-1 869h-350q-173 -20 -181 -230h-30v284h682v0h671v0l6 -142l7 -142h-30q-44 133 -106 180t-143 50h-282l-1 -869q0 -88 48 -124.5t177 -40.5v-11h-344h-346v11q126 0 174.5 38.5t48.5 126.5z" />
    <glyph glyph-name="u" unicode="u" horiz-adv-x="1300" 
d="M-22 1179v21h1339v-21h-1339zM1099 396q0 -213 -115.5 -318.5t-350.5 -105.5q-237 0 -351 103.5t-115 320.5v529q5 91 -47.5 128.5t-119.5 36.5v12h266h267v-16q-84 8 -131 -32t-47 -129v-548q0 -173 72 -273.5t206.5 -107t259.5 103.5t125 277v483q0 129 -53.5 179.5
t-124.5 50.5v12h215h216v-12q-74 4 -123 -48.5t-49 -181.5v-464z" />
    <glyph glyph-name="v" unicode="v" horiz-adv-x="1300" 
d="M-22 1179v21h1339v-21h-1339zM186 922q-66 122 -99.5 144.5t-86.5 20.5v12h246h246v-12q-69 2 -109 -29.5t1 -135.5l333 -692v0v0l272 635q55 124 24.5 171.5t-121.5 50.5v12h186h187v-12q-68 0 -95.5 -37.5t-68.5 -127.5l-417 -944h-15h-14z" />
    <glyph glyph-name="w" unicode="w" horiz-adv-x="1520" 
d="M-102 1179v21h1658v-21h-1658zM507 -22h-26l-331 945q-32 88 -59.5 125.5t-90.5 38.5v12h425v-12q-73 0 -104.5 -38.5t0.5 -125.5l224 -635l173 499l-51 136q-34 88 -65 125.5t-98 38.5v12h437v-13q-78 2 -106.5 -36.5t5.5 -126.5l231 -630l191 572q41 124 11 173.5
t-104 49.5v11h330v-12q-66 -1 -85 -38.5t-52 -125.5l-326 -945h-25l-255 701z" />
    <glyph glyph-name="x" unicode="x" horiz-adv-x="1217" 
d="M-102 1179v21h1339v-21h-1339zM214 176l305 366v0l-263 367q-66 92 -131 134t-125 43v13h282h258v-13q-89 2 -115.5 -51.5t58.5 -168.5l143 -196v0v0l196 236q77 88 59 136t-112 45v12h205h225v-12q-61 3 -125.5 -36.5t-139.5 -127.5l-263 -314v0l317 -433
q64 -103 100.5 -129.5t110.5 -34.5v-12h-259h-260v12q80 2 114.5 49.5t-55.5 171.5l-175 246v0v0l-205 -246q-97 -113 -88 -156.5t131 -44.5v-32h-201h-201v12q56 0 98.5 35t115.5 129z" />
    <glyph glyph-name="y" unicode="y" horiz-adv-x="1200" 
d="M-22 1179v21h1339v-21h-1339zM681 525l1 -1l-12 -15v-333q0 -89 34.5 -126.5t143.5 -37.5v-12h-488v12q97 0 137.5 37.5t40.5 126.5v309l-329 438q-66 89 -111.5 128t-97.5 36v12h479v-12q-98 0 -117 -40.5t45 -134.5l192 -278l36 -48l180 265q90 132 67 183.5t-104 52.5
v12h395v-13q-72 1 -113 -39.5t-108 -134.5z" />
    <glyph glyph-name="z" unicode="z" horiz-adv-x="1200" 
d="M-102 1179v21h1339v-21h-1339zM28 56l4 5l873 993h-309q-307 1 -399 -34.5t-135 -203.5h-14l19 143l19 143h1093v-26l-902 -1014l-15 -12l-6 -5l328 1q308 -1 400 33t135 196h14l-19 -137l-19 -138h-1095v25l27 30z" />
    <glyph glyph-name="braceleft" unicode="{" 
d="M240 698q172 5 223 71t51 133v468q0 74 77 141.5t185 67.5h108v-50h-90q-61 0 -107 -33.5t-47 -91.5v-500q0 -83 -60.5 -158.5t-142.5 -76.5v-2q82 -1 143 -76t61 -158l-1 -500q1 -58 47 -91.5t107 -33.5h90v-50h-108q-108 0 -184.5 67.5t-77.5 141.5v468q0 66 -51 132
t-223 71v60z" />
    <glyph glyph-name="bar" unicode="|" 
d="M427 1577h160v-1995h-160v1995z" />
    <glyph glyph-name="braceright" unicode="}" 
d="M774 638q-172 -5 -223 -71t-51 -132v-468q-1 -74 -77.5 -141.5t-184.5 -67.5h-108v50h90q61 0 107 33.5t47 91.5l-1 500q0 83 61 158t144 76v2q-83 1 -143.5 76.5t-60.5 158.5v500q-1 58 -47 91.5t-107 33.5h-90v50h108q108 0 185 -67.5t77 -141.5v-468q0 -67 51 -133
t223 -71v-60z" />
    <glyph glyph-name="asciitilde" unicode="~" 
d="M923 878v-156q-63 -72 -122 -97.5t-116 -25.5q-60 0 -177.5 48.5t-176.5 48.5q-51 0 -107.5 -28t-129.5 -112v156q64 73 123 99t114 26q64 0 181.5 -49.5t172.5 -49.5q52 0 108.5 28t129.5 112z" />
    <glyph glyph-name="exclamdown" unicode="&#xa1;" horiz-adv-x="400" 
d="M208 1100q-21 0 -34.5 14.5t-13.5 36.5t13.5 36.5t34.5 14.5q20 0 33.5 -14.5t13.5 -36.5t-13.5 -36.5t-33.5 -14.5zM220 1000l80 -1042q0 -46 -20.5 -69t-62.5 -23q-41 0 -62 23t-21 69l49 1042h37z" />
    <glyph glyph-name="cent" unicode="&#xa2;" horiz-adv-x="1139" 
 />
    <glyph glyph-name="sterling" unicode="&#xa3;" 
d="M748 1347q-72 31 -160 31h-2q-100 0 -190 -101q-84 -93 -84 -241q0 -15 1 -30q0 -135 53 -273h360v-60h-334q14 -30 31 -60q35 -63 35 -138q0 -161 -162 -375h402q130 0 189 132l49 -1l-103 -231h-719l1 50q187 238 187 418q0 77 -34 143q-17 32 -31 62h-161v60h135
q-58 143 -58 253q0 226 123.5 347t306.5 121h4q75 0 185.5 -14t110.5 -34v-161h-58q-5 61 -77 102z" />
    <glyph glyph-name="currency" unicode="&#xa4;" 
d="M350 560q41 -40 99 -57q29 -8 58 -8t58 8q58 17 99 57q40 41 57 99q9 29 9 58t-9 58q-17 58 -57 99q-41 40 -100 57q-29 8 -58 8t-58 -9q-58 -17 -98 -56q-39 -40 -56 -98q-10 -30 -10 -60q0 -28 9 -56q16 -59 57 -100zM240 903l-118 118l80 81l118 -118q44 30 99 46
q44 14 89 14q41 0 83 -12q57 -17 102 -48l118 118l80 -81l-117 -117q31 -46 48 -102q12 -42 12 -85q0 -42 -12 -85q-17 -56 -48 -102l117 -117l-80 -81l-118 118q-45 -32 -101 -48q-42 -12 -85 -12q-42 0 -85 12q-57 16 -102 48l-118 -118l-80 81l118 117q-32 46 -48 103
q-12 42 -12 84q0 44 13 87q16 55 47 99z" />
    <glyph glyph-name="yen" unicode="&#xa5;" horiz-adv-x="1262" 
d="M547 225l-2 242q0 19 -1.5 35t-4.5 32l-484 1q-14 0 -21 6.5t-7 19.5t6.5 19t21.5 6h467l-121 172h-344q-17 0 -23.5 5.5t-6.5 18.5q0 14 6 19.5t22 5.5h307q-43 57 -108 155q-131 197 -227 197q-7 0 -13 5.5t-6 11.5q0 19 10.5 27.5t32.5 8.5q27 0 123 -8t164 -8h57h31
q33 0 41 -6.5t8 -26.5q0 -8 -15 -14t-38 -6q-6 0 -18.5 2t-18.5 2q-24 0 -37.5 -9.5t-13.5 -25.5q0 -18 16.5 -52t46.5 -77l158 -221q13 -19 33 -53q41 -70 71 -70q9 0 16.5 5t14.5 15l277 396q8 12 13 26.5t5 24.5q0 18 -10 27t-37 14q-15 2 -41 4q-47 3 -47 25
q0 15 8 22.5t25 7.5q3 0 15 -1q56 -7 108 -7h139q30 0 65 1t37 1q11 0 18.5 -4.5t8.5 -11.5q0 -28 -38 -34q-18 -3 -27 -5q-63 -15 -147 -117q-7 -9 -12 -15l-169 -206h323q15 0 24 -6t9 -17q0 -15 -6 -20.5t-23 -5.5h-366q-46 -57 -96.5 -112.5t-52.5 -59.5h511
q18 0 25.5 -5.5t7.5 -17.5q0 -14 -7 -21t-22 -7h-530q0 -11 -1 -30.5t-1 -29.5l2 -215q0 -114 5.5 -150t20.5 -44q30 -17 107.5 -19t77.5 -31q0 -12 -10 -20t-25 -8q-2 0 -35.5 4t-64.5 4q-91 0 -208.5 -4t-142.5 -4q-31 0 -40 4t-9 16t8 18.5t37 12.5q9 2 25 5q74 16 92 32
q17 13 24 47t7 102z" />
    <glyph glyph-name="brokenbar" unicode="&#xa6;" 
d="M427 371h160v-789h-160v789zM427 1578h160v-789h-160v789z" />
    <glyph glyph-name="section" unicode="&#xa7;" 
d="M545 321q56 16 97 53q73 65 73 166q0 5 -1 10h-2q-1 14 -4 27q-22 61 -113 127q-59 29 -126 29q-78 0 -125 -44.5t-47 -117.5q0 -123 248 -250zM466 -346q113 6 185 69q72 64 72 165q0 125 -316 276q-123 64 -175.5 137t-52.5 177q0 148 89 237q67 65 170 82l-40 19
q-123 64 -175.5 137t-52.5 177q0 148 89 237q82 79 216 86q8 1 17 1h3q66 0 163 -16.5t97 -41.5v-194h-51q-5 81 -80 132q-70 47 -149 51h-15q-78 0 -125 -44.5t-47 -117.5q0 -132 287 -269q149 -67 204.5 -143.5t55.5 -187.5q0 -171 -101 -282q-47 -39 -99 -64
q108 -56 154 -118q55 -77 55 -187q0 -171 -101 -283q-124 -102 -277 -105v1q-6 -1 -13 -1h-3q-66 0 -163 16.5t-97 41.5v194h51q5 -81 80 -132q68 -45 145 -50z" />
    <glyph glyph-name="dieresis" unicode="&#xa8;" horiz-adv-x="1024" 
d="M223 1289l71 72q13 12 25 12q11 0 27 -14l69 -73q10 -14 10 -25q0 -13 -12 -27l-69 -75q-17 -17 -25 -17q-14 0 -25 12l-76 86q-9 12 -9 23q0 13 14 26zM588 1289l71 72q13 12 25 12q11 0 27 -13l69 -74q10 -14 10 -25q0 -13 -12 -26l-69 -76q-17 -17 -25 -17
q-14 0 -25 12l-76 87q-9 11 -9 22q0 13 14 26z" />
    <glyph glyph-name="copyright" unicode="&#xa9;" horiz-adv-x="1674" 
d="M840 1456q145 0 280 -56.5t239 -160.5q102 -101 158.5 -238t56.5 -283q0 -147 -56.5 -282t-162.5 -240q-105 -105 -239 -159.5t-283 -54.5q-146 0 -278 55.5t-238 160.5q-106 104 -161.5 237.5t-55.5 282.5q0 148 55.5 283t159.5 238q102 104 238.5 160.5t286.5 56.5z
M357 1197q-95 -96 -146 -219.5t-51 -259.5q0 -137 51 -259t148 -219q98 -96 219 -147t256 -51q137 0 259.5 50.5t219.5 145.5q97 98 149 221.5t52 258.5q0 134 -52 259.5t-145 219.5q-96 96 -220 147.5t-258 51.5q-137 0 -262 -51.5t-220 -147.5zM865 223q-142 0 -264 68
t-186 185t-64 243t65.5 244t187.5 184.5t254 66.5q38 0 75 -6.5t76 -20.5q5 -1 9 -1q19 0 26 30h42l72 -198h-44q-52 94 -131 124q-72 26 -147 26h-15q-86 -8 -166.5 -71t-121.5 -177q-33 -90 -33 -184q0 -25 2 -50q11 -121 69.5 -224t149.5 -152q72 -40 166 -42
q124 0 194 56t70 126h53v-100q0 -46 -96.5 -86.5t-242.5 -40.5z" />
    <glyph glyph-name="ordfeminine" unicode="&#xaa;" horiz-adv-x="648" 
 />
    <glyph glyph-name="guillemotleft" unicode="&#xab;" horiz-adv-x="944" 
d="M174 479l342 303h14v-37l-205 -266l205 -266v-37h-14zM487 479l342 303h14v-37l-205 -266l205 -266v-37h-14z" />
    <glyph glyph-name="logicalnot" unicode="&#xac;" 
d="M87 767h840v-491l-1 -1h-98v392h-741v100z" />
    <glyph glyph-name="registered" unicode="&#xae;" horiz-adv-x="1674" 
d="M751 1099v-374l3 -8q23 -56 56 -81q29 -22 56 -22h6q31 4 61.5 38.5t46.5 97.5q13 50 13 103q0 13 -1 27q-4 67 -28 124.5t-56.5 76t-63.5 18.5h-93zM984 576l82 -116q100 -141 150 -141h34v-50h-346v50h45q30 0 30 22q0 29 -69 114l-75 102q-42 0 -84 42v-159
q0 -121 36 -121h53v-50h-316v50h43q37 0 37 121v538q0 121 -37 121h-43v70h356q64 -1 125 -42q60 -41 92.5 -114t32.5 -152q0 -78 -32 -150.5t-114 -134.5zM840 1456q145 0 280 -56.5t239 -160.5q102 -101 158.5 -238t56.5 -283q0 -147 -56.5 -282t-162.5 -240
q-105 -105 -239 -159.5t-283 -54.5q-146 0 -278 55.5t-238 160.5q-106 104 -161.5 237.5t-55.5 282.5q0 148 55.5 283t159.5 238q102 104 238.5 160.5t286.5 56.5zM357 1197q-95 -96 -146 -219.5t-51 -259.5q0 -137 51 -259t148 -219q98 -96 219 -147t256 -51
q137 0 259.5 50.5t219.5 145.5q97 98 149 221.5t52 258.5q0 134 -52 259.5t-145 219.5q-96 96 -220 147.5t-258 51.5q-137 0 -262 -51.5t-220 -147.5z" />
    <glyph glyph-name="macron" unicode="&#xaf;" horiz-adv-x="670" 
 />
    <glyph glyph-name="degree" unicode="&#xb0;" horiz-adv-x="674" 
d="M339 1372q-86 0 -147.5 -61t-61.5 -148t61 -147t148 -60t147 60t60 147t-60.5 148t-146.5 61zM339 1442q115 0 196 -81.5t81 -196.5q0 -114 -82 -196t-197 -82q-117 0 -197 81t-80 197t81.5 197t197.5 81z" />
    <glyph glyph-name="plusminus" unicode="&#xb1;" 
 />
    <glyph glyph-name="uni00B2" unicode="&#xb2;" 
 />
    <glyph glyph-name="uni00B3" unicode="&#xb3;" 
 />
    <glyph glyph-name="acute" unicode="&#xb4;" horiz-adv-x="1024" 
d="M607 1375q35 35 55.5 47t40.5 12q33 0 53.5 -20t20.5 -51q0 -22 -15.5 -42t-46.5 -40l-330 -203h-69z" />
    <glyph glyph-name="mu" unicode="&#xb5;" horiz-adv-x="1180" 
 />
    <glyph glyph-name="paragraph" unicode="&#xb6;" horiz-adv-x="1024" 
d="M929 1435v-70h-127v-1365h-82v1365h-166v-1365h-84v738q-174 8 -275.5 102.5t-101.5 245.5q0 157 107.5 253t285.5 96h443z" />
    <glyph glyph-name="periodcentered" unicode="&#xb7;" horiz-adv-x="508" 
d="M145 740l82 84q15 14 29 14q13 0 31 -16l80 -86q12 -16 12 -29q0 -15 -14 -31l-80 -88q-20 -20 -29 -20q-16 0 -29 14l-88 101q-10 13 -10 26q0 15 16 31z" />
    <glyph glyph-name="periodcentered" unicode="&#x2219;" horiz-adv-x="508" 
d="M145 740l82 84q15 14 29 14q13 0 31 -16l80 -86q12 -16 12 -29q0 -15 -14 -31l-80 -88q-20 -20 -29 -20q-16 0 -29 14l-88 101q-10 13 -10 26q0 15 16 31z" />
    <glyph glyph-name="cedilla" unicode="&#xb8;" horiz-adv-x="1024" 
d="M360 -290q85 -52 152 -52q66 0 94.5 21.5t28.5 66.5t-49 64q-40 16 -102 16q-16 0 -34 -2l48 176h63l-37 -104q32 4 62 5q86 0 134 -40.5t48 -113.5q0 -76 -58.5 -120.5t-160.5 -44.5q-109 0 -189 32v96z" />
    <glyph glyph-name="uni00B9" unicode="&#xb9;" 
 />
    <glyph glyph-name="ordmasculine" unicode="&#xba;" horiz-adv-x="718" 
 />
    <glyph glyph-name="guillemotright" unicode="&#xbb;" horiz-adv-x="944" 
d="M115 176h-14v37l205 266l-205 266v37h14l342 -303zM428 176h-14v37l205 266l-205 266v37h14l342 -303z" />
    <glyph glyph-name="onequarter" unicode="&#xbc;" horiz-adv-x="1708" 
 />
    <glyph glyph-name="onehalf" unicode="&#xbd;" horiz-adv-x="1964" 
 />
    <glyph glyph-name="threequarters" unicode="&#xbe;" horiz-adv-x="1708" 
 />
    <glyph glyph-name="questiondown" unicode="&#xbf;" horiz-adv-x="748" 
d="M634 27q-128 -104 -242 -104q-132 0 -212 68t-80 182q0 69 32.5 140t128.5 168.5t155 171.5t58 238q2 116 -30 119v8h97v-7q-30 -4 -29 -131v-73q0 -109 -124.5 -308t-141 -299.5t49.5 -177t175 -48t125 186.5l38 -1v-133zM483 1200q21 0 36 -15t15 -37q0 -23 -15 -38
t-36 -15q-22 0 -37 15t-15 38q0 22 15 37t37 15z" />
    <glyph glyph-name="Agrave" unicode="&#xc0;" horiz-adv-x="1540" 
 />
    <glyph glyph-name="Aacute" unicode="&#xc1;" horiz-adv-x="1557" 
d="M210 226l267 604l133 302l82 217q8 33 -16.5 52.5t-43.5 17.5v15h234v-15q-23 8 -40.5 -16.5t10.5 -81.5l19 -38l69 -151l137 -302l275 -605q100 -225 204 -210v-15h-285h-286v15q118 -1 150 48t-19 162l-103 234v0h-591l-69 -160q-72 -161 -58 -223.5t169 -60.5v-15
h-224h-224v15q92 9 122.5 47t87.5 164zM432 527l539 -1l-271 645zM720 1500l257 68l23 -33l-200 -35h-80z" />
    <glyph glyph-name="Acircumflex" unicode="&#xc2;" horiz-adv-x="1540" 
 />
    <glyph glyph-name="Atilde" unicode="&#xc3;" horiz-adv-x="1540" 
 />
    <glyph glyph-name="Adieresis" unicode="&#xc4;" horiz-adv-x="1540" 
 />
    <glyph glyph-name="Aring" unicode="&#xc5;" horiz-adv-x="1540" 
 />
    <glyph glyph-name="AE" unicode="&#xc6;" horiz-adv-x="2118" 
 />
    <glyph glyph-name="Ccedilla" unicode="&#xc7;" horiz-adv-x="1399" 
 />
    <glyph glyph-name="Egrave" unicode="&#xc8;" horiz-adv-x="1151" 
 />
    <glyph glyph-name="Eacute" unicode="&#xc9;" horiz-adv-x="1151" 
d="M720 1500l257 68l23 -33l-200 -35h-80zM800 0h229l133 200h-17q-86 -98 -202 -100h-143v-100zM800 0h-797v15q75 -5 127.5 43t52.5 171v976q2 116 -39 162.5t-141 51.5v15h1067q25 2 26 -16l1 -299h-15q-10 125 -89 180t-267 53h-261q-44 0 -58.5 -15.5t-14.5 -62.5v-478
h295q137 4 204 43q64 45 70 151h16v-480h-18q-25 119 -85 165q-64 33 -187 32h-295v-525q8 -82 94 -82h314v-100z" />
    <glyph glyph-name="Ecircumflex" unicode="&#xca;" horiz-adv-x="1151" 
 />
    <glyph glyph-name="Edieresis" unicode="&#xcb;" horiz-adv-x="1151" 
 />
    <glyph glyph-name="Igrave" unicode="&#xcc;" horiz-adv-x="657" 
 />
    <glyph glyph-name="Iacute" unicode="&#xcd;" horiz-adv-x="700" 
d="M300 1500l257 68l23 -33l-200 -35h-80zM657 1416v18h-502h-155v-18q154 0 186 -21t38 -65v-650v-326v-162v-51q2 -78 -30 -102t-194 -21v-18h657v18q-177 1 -201.5 35.5t-22.5 87.5v51v162v326v650q-2 40 24.5 64.5t199.5 21.5z" />
    <glyph glyph-name="Icircumflex" unicode="&#xce;" horiz-adv-x="657" 
 />
    <glyph glyph-name="Idieresis" unicode="&#xcf;" horiz-adv-x="657" 
 />
    <glyph glyph-name="Eth" unicode="&#xd0;" horiz-adv-x="1518" 
 />
    <glyph glyph-name="Ntilde" unicode="&#xd1;" horiz-adv-x="1554" 
 />
    <glyph glyph-name="Ograve" unicode="&#xd2;" horiz-adv-x="1614" 
 />
    <glyph glyph-name="Oacute" unicode="&#xd3;" horiz-adv-x="1614" 
d="M720 1500l257 68l23 -33l-200 -35h-80zM807 0q-353 0 -580 200.5t-227 512.5q0 313 227 514t580 201q354 0 581 -201t227 -514q0 -312 -227 -512.5t-581 -200.5v0zM783 74q241 26 383.5 176t183.5 461q-41 390 -203.5 515t-363.5 128q-193 -3 -351 -144.5t-194 -498.5
q25 -311 168.5 -461t376.5 -176v0z" />
    <glyph glyph-name="Ocircumflex" unicode="&#xd4;" horiz-adv-x="1614" 
 />
    <glyph glyph-name="Otilde" unicode="&#xd5;" horiz-adv-x="1614" 
 />
    <glyph glyph-name="Odieresis" unicode="&#xd6;" horiz-adv-x="1614" 
 />
    <glyph glyph-name="multiply" unicode="&#xd7;" 
d="M507 618l-247 -247l-99 99l247 247l-247 248l99 98l247 -247l248 247l98 -99l-247 -247l247 -247l-99 -99z" />
    <glyph glyph-name="Oslash" unicode="&#xd8;" horiz-adv-x="1614" 
 />
    <glyph glyph-name="Ugrave" unicode="&#xd9;" horiz-adv-x="1501" 
 />
    <glyph glyph-name="Uacute" unicode="&#xda;" horiz-adv-x="1440" 
d="M720 1500l257 68l23 -33l-200 -35h-80zM1223 511q1 -271 -128 -405t-390 -134q-264 0 -391 132t-128 407v673q6 116 -52.5 163.5t-133.5 46.5v15h296h297v-20q-93 10 -145.5 -41t-52.5 -164v-697q0 -220 80.5 -348t230 -136.5t288.5 132t139 352.5v614q0 164 -59.5 228
t-138.5 65v15h240h240v-15q-82 5 -137 -62t-55 -231v-590z" />
    <glyph glyph-name="Ucircumflex" unicode="&#xdb;" horiz-adv-x="1501" 
 />
    <glyph glyph-name="Udieresis" unicode="&#xdc;" horiz-adv-x="1501" 
 />
    <glyph glyph-name="Yacute" unicode="&#xdd;" horiz-adv-x="1233" 
 />
    <glyph glyph-name="Thorn" unicode="&#xde;" horiz-adv-x="1120" 
 />
    <glyph glyph-name="germandbls" unicode="&#xdf;" horiz-adv-x="1251" 
 />
    <glyph glyph-name="agrave" unicode="&#xe0;" horiz-adv-x="922" 
 />
    <glyph glyph-name="aacute" unicode="&#xe1;" horiz-adv-x="1228" 
d="M165 170l208 450l104 227l64 162q6 24 -13 38.5t-34 13.5v11h183v-11q-18 6 -32 -12.5t9 -61.5l15 -28l53 -113l108 -226l215 -451q78 -169 159 -158v-11h-223h-223v11q92 -1 117 36t-15 122l-81 174v0h-461l-55 -120q-56 -120 -45 -166.5t132 -45.5v-11h-175h-175v11
q72 7 96 35.5t69 123.5zM338 404l421 -1l-212 494zM0 1179v21h1257v-21h-1257zM571 1096l257 68l23 -33l-200 -35h-80z" />
    <glyph glyph-name="acircumflex" unicode="&#xe2;" horiz-adv-x="922" 
 />
    <glyph glyph-name="atilde" unicode="&#xe3;" horiz-adv-x="922" 
 />
    <glyph glyph-name="adieresis" unicode="&#xe4;" horiz-adv-x="922" 
 />
    <glyph glyph-name="aring" unicode="&#xe5;" horiz-adv-x="922" 
 />
    <glyph glyph-name="ae" unicode="&#xe6;" horiz-adv-x="1454" 
 />
    <glyph glyph-name="ccedilla" unicode="&#xe7;" horiz-adv-x="905" 
 />
    <glyph glyph-name="egrave" unicode="&#xe8;" horiz-adv-x="909" 
 />
    <glyph glyph-name="eacute" unicode="&#xe9;" horiz-adv-x="1161" 
d="M571 1096l257 68l23 -33l-200 -35h-80zM800 0h229l133 153h-17q-86 -75 -202 -76h-143v-77zM800 0h-797v11q75 -3 127.5 32.5t52.5 127.5v726q2 86 -39 121t-141 39v11h1067q25 2 26 -12l1 -222h-15q-10 92 -89 133.5t-267 39.5h-261q-44 0 -58.5 -12t-14.5 -47v-355h295
q137 3 204 32q64 33 70 113h16v-358h-18q-25 88 -85 122q-64 26 -187 25h-295v-392q8 -60 94 -60h314v-75zM0 1179v21h1258v-21h-1258z" />
    <glyph glyph-name="ecircumflex" unicode="&#xea;" horiz-adv-x="909" 
 />
    <glyph glyph-name="edieresis" unicode="&#xeb;" horiz-adv-x="909" 
 />
    <glyph glyph-name="igrave" unicode="&#xec;" horiz-adv-x="514" 
 />
    <glyph glyph-name="iacute" unicode="&#xed;" horiz-adv-x="531" 
d="M181 1096l257 68l23 -33l-200 -35h-80zM513 14q-124 4 -146.5 29.5t-23.5 60.5v881q-2 30 20 48q21 16 150 15v14h-513v-14q115 0 139 -14q26 -16 31 -49v-881q3 -31 -25 -59.5t-145 -30.5v-14h513v14zM642 1179h-642v21h642v-21z" />
    <glyph glyph-name="icircumflex" unicode="&#xee;" horiz-adv-x="514" 
 />
    <glyph glyph-name="idieresis" unicode="&#xef;" horiz-adv-x="514" 
 />
    <glyph glyph-name="eth" unicode="&#xf0;" horiz-adv-x="1139" 
 />
    <glyph glyph-name="ntilde" unicode="&#xf1;" horiz-adv-x="1108" 
 />
    <glyph glyph-name="ograve" unicode="&#xf2;" horiz-adv-x="1010" 
 />
    <glyph glyph-name="oacute" unicode="&#xf3;" horiz-adv-x="1200" 
d="M571 1096l257 68l23 -33l-200 -35h-80zM1026 531q0 266 -123 373t-305 107t-296.5 -107t-114.5 -373q0 -235 114.5 -355.5t296.5 -120.5t305 119t123 357zM0 535q0 235 168 386t430 151q263 0 431 -151t168 -386q0 -236 -168 -386.5t-431 -150.5q-262 0 -430 150.5
t-168 386.5zM-12 1179v21h1222v-21h-1222z" />
    <glyph glyph-name="ocircumflex" unicode="&#xf4;" horiz-adv-x="1010" 
 />
    <glyph glyph-name="otilde" unicode="&#xf5;" horiz-adv-x="1010" 
 />
    <glyph glyph-name="odieresis" unicode="&#xf6;" horiz-adv-x="1010" 
 />
    <glyph glyph-name="divide" unicode="&#xf7;" 
d="M87 647v140h839l1 -1v-139h-840zM398 408l82 84q15 14 29 14q13 0 31 -16l80 -86q12 -16 12 -29q0 -15 -14 -31l-80 -88q-20 -20 -29 -20q-16 0 -29 14l-88 101q-10 13 -10 26q0 15 16 31zM398 1101l82 84q15 14 29 14q13 0 31 -16l80 -86q12 -16 12 -29q0 -15 -14 -31
l-80 -88q-20 -20 -29 -20q-16 0 -29 14l-88 101q-10 13 -10 26q0 15 16 31z" />
    <glyph glyph-name="oslash" unicode="&#xf8;" horiz-adv-x="1010" 
 />
    <glyph glyph-name="ugrave" unicode="&#xf9;" horiz-adv-x="1059" 
 />
    <glyph glyph-name="uacute" unicode="&#xfa;" horiz-adv-x="1300" 
d="M571 1096l257 68l23 -33l-200 -35h-80zM-22 1179v21h1339v-21h-1339zM1099 385q0 -208 -115.5 -310.5t-350.5 -102.5q-237 0 -351 101t-115 312v515q5 88 -47.5 124.5t-119.5 35.5v12h266h267v-16q-84 8 -131 -31t-47 -125v-534q0 -168 72 -266t206.5 -104t259.5 101
t125 269v470q0 126 -53.5 175t-124.5 49v12h215h216v-12q-74 4 -123 -47t-49 -177v-451z" />
    <glyph glyph-name="ucircumflex" unicode="&#xfb;" horiz-adv-x="1059" 
 />
    <glyph glyph-name="udieresis" unicode="&#xfc;" horiz-adv-x="1059" 
 />
    <glyph glyph-name="yacute" unicode="&#xfd;" horiz-adv-x="868" 
 />
    <glyph glyph-name="thorn" unicode="&#xfe;" horiz-adv-x="1010" 
 />
    <glyph glyph-name="ydieresis" unicode="&#xff;" horiz-adv-x="868" 
 />
    <glyph glyph-name="dotlessi" unicode="&#x131;" horiz-adv-x="514" 
d="M328 223q0 -173 100 -173h46v-50h-442v50h46q100 0 100 173v432q0 77 -111 77h-48v44q222 69 261 182h48v-735z" />
    <glyph glyph-name="circumflex" unicode="&#x2c6;" horiz-adv-x="1024" 
d="M221 1079l232 355h118l232 -355h-58l-233 216l-233 -216h-58z" />
    <glyph glyph-name="caron" unicode="&#x2c7;" horiz-adv-x="1024" 
d="M221 1434h58l233 -214l233 214h58l-232 -356h-118z" />
    <glyph glyph-name="uni02C9" unicode="&#x2c9;" horiz-adv-x="1024" 
d="M254 1195v125h516v-125h-516z" />
    <glyph glyph-name="breve" unicode="&#x2d8;" horiz-adv-x="1024" 
d="M219 1349h51q17 -73 75 -107t167 -34t166 33.5t74 107.5h51q-20 -133 -94 -201.5t-197 -68.5q-122 0 -197 69t-96 201z" />
    <glyph glyph-name="dotaccent" unicode="&#x2d9;" horiz-adv-x="1024" 
d="M422 1289l69 72q6 6 13 9t14 3q6 0 12.5 -3t12.5 -9l71 -76q5 -4 7 -10t2 -14q-1 -9 -3 -15t-8 -12l-71 -76q-12 -11 -16 -13.5t-7 -2.5q-10 0 -16.5 2.5t-10.5 8.5l-75 87q-4 4 -6 9.5t-2 13.5q0 6 3 12.5t11 13.5z" />
    <glyph glyph-name="ring" unicode="&#x2da;" horiz-adv-x="1024" 
d="M411 1257q0 -42 29 -71t71 -29t71 29t29 71q0 40 -29.5 69.5t-70.5 29.5t-70.5 -29.5t-29.5 -69.5zM335 1257q0 75 51 126t125 51q76 0 127.5 -51.5t51.5 -125.5q0 -75 -51.5 -126.5t-127.5 -51.5q-74 0 -125 51.5t-51 126.5z" />
    <glyph glyph-name="ogonek" unicode="&#x2db;" horiz-adv-x="1024" 
d="M640 0q-71 -62 -110.5 -119.5t-39.5 -112.5q0 -47 27 -75t73 -28q40 0 69.5 15.5t49.5 48.5l28 -16q-36 -63 -90.5 -97t-119.5 -34q-70 0 -114 35.5t-44 90.5q0 76 60.5 156.5t161.5 135.5h49z" />
    <glyph glyph-name="tilde" unicode="&#x2dc;" horiz-adv-x="1024" 
d="M808 1382q-20 -103 -68.5 -154t-126.5 -51h-4q-50 0 -113 23q-66 24 -114 24q-39 0 -60.5 -20.5t-33.5 -71.5h-54q19 106 68 158.5t129 52.5q46 -1 113 -24q64 -23 112 -23h4q36 0 58 20t36 66h54z" />
    <glyph glyph-name="hungarumlaut" unicode="&#x2dd;" horiz-adv-x="1024" 
d="M217 1079l144 273q24 44 45.5 63t46.5 19q28 0 48 -20t20 -47q0 -16 -10.5 -35t-30.5 -41l-205 -212h-58zM502 1079l144 273q24 44 45.5 63t46.5 19q28 0 48 -20t20 -47q0 -16 -10.5 -35t-30.5 -41l-205 -212h-58z" />
    <glyph glyph-name="endash" unicode="&#x2013;" horiz-adv-x="1108" 
d="M56 419v120h996v-120h-996z" />
    <glyph glyph-name="emdash" unicode="&#x2014;" horiz-adv-x="2048" 
d="M0 419v120h2048v-120h-2048z" />
    <glyph glyph-name="quoteleft" unicode="&#x2018;" horiz-adv-x="557" 
d="M319 1016q-44 0 -88.5 65.5t-44.5 151.5q0 109 71 226.5t139 117.5v-43q-73 -43 -87 -190q0 -119 129 -161v-42z" />
    <glyph glyph-name="quoteright" unicode="&#x2019;" horiz-adv-x="557" 
d="M238 1577q44 0 88.5 -65.5t44.5 -151.5q0 -109 -71 -226.5t-139 -117.5v43q73 43 87 190q0 119 -129 161v42z" />
    <glyph glyph-name="quotesinglbase" unicode="&#x201a;" horiz-adv-x="557" 
d="M238 281q44 0 88.5 -65.5t44.5 -151.5q0 -109 -71 -226.5t-139 -117.5v43q73 43 87 190q0 119 -129 161v42z" />
    <glyph glyph-name="quotedblleft" unicode="&#x201c;" horiz-adv-x="910" 
d="M319 1016q-44 0 -88.5 65.5t-44.5 151.5q0 109 71 226.5t139 117.5v-43q-73 -43 -87 -190q0 -119 129 -161v-42zM672 1016q-44 0 -88.5 65.5t-44.5 151.5q0 109 71 226.5t139 117.5v-43q-73 -43 -87 -190q0 -119 129 -161v-42z" />
    <glyph glyph-name="quotedblright" unicode="&#x201d;" horiz-adv-x="910" 
d="M238 1577q44 0 88.5 -65.5t44.5 -151.5q0 -109 -71 -226.5t-139 -117.5v43q73 43 87 190q0 119 -129 161v42zM591 1577q44 0 88.5 -65.5t44.5 -151.5q0 -109 -71 -226.5t-139 -117.5v43q73 43 87 190q0 119 -129 161v42z" />
    <glyph glyph-name="quotedblbase" unicode="&#x201e;" horiz-adv-x="910" 
d="M238 281q44 0 88.5 -65.5t44.5 -151.5q0 -109 -71 -226.5t-139 -117.5v43q73 43 87 190q0 119 -129 161v42zM591 281q44 0 88.5 -65.5t44.5 -151.5q0 -109 -71 -226.5t-139 -117.5v43q73 43 87 190q0 119 -129 161v42z" />
    <glyph glyph-name="dagger" unicode="&#x2020;" 
d="M486 1022q-8 97 -54 178q-57 101 -57 129q0 49 36 78.5t96 29.5q57 0 94.5 -27.5t37.5 -71.5q0 -32 -55 -137q-46 -85 -55 -179q96 8 177 54q101 57 129 57q49 0 79 -36t30 -96q0 -57 -27.5 -94.5t-72.5 -37.5q-32 0 -136 55q-85 46 -179 57q8 -176 110 -277
q-106 -460 -112 -974h-38q-6 514 -114 974q102 101 111 277q-96 -10 -178 -55q-101 -57 -129 -57q-49 0 -78.5 36t-29.5 96q0 57 27.5 94.5t71.5 37.5q32 0 137 -56q85 -46 179 -55z" />
    <glyph glyph-name="daggerdbl" unicode="&#x2021;" 
d="M528 186q94 11 179 57q104 55 136 55q45 0 72.5 -37.5t27.5 -94.5q0 -60 -30 -96t-79 -36q-28 0 -129 57q-81 46 -177 54q9 -94 55 -179q55 -105 55 -137q0 -44 -37.5 -71.5t-94.5 -27.5q-60 0 -96 29.5t-36 78.5q0 28 57 129q46 81 54 178q-94 -9 -179 -55
q-105 -56 -137 -56q-44 0 -71.5 37.5t-27.5 94.5q0 60 29.5 96t78.5 36q28 0 129 -57q82 -45 178 -55q-9 226 -111 398q102 171 111 397q-96 -10 -178 -55q-101 -57 -129 -57q-49 0 -78.5 36t-29.5 96q0 57 27.5 94.5t71.5 37.5q32 0 137 -56q85 -46 179 -55q-8 97 -54 178
q-57 101 -57 129q0 49 36 78.5t96 29.5q57 0 94.5 -27.5t37.5 -71.5q0 -32 -55 -137q-46 -85 -55 -179q96 8 177 54q101 57 129 57q49 0 79 -36t30 -96q0 -57 -27.5 -94.5t-72.5 -37.5q-32 0 -136 55q-85 46 -179 57q8 -226 110 -397q-102 -172 -110 -398z" />
    <glyph glyph-name="bullet" unicode="&#x2022;" horiz-adv-x="1024" 
d="M216 718q0 123 87 209t210 86q122 0 208.5 -86.5t86.5 -208.5t-87.5 -209.5t-209.5 -87.5q-123 0 -209 87t-86 210z" />
    <glyph glyph-name="ellipsis" unicode="&#x2026;" horiz-adv-x="2048" 
d="M145 167l82 84q15 14 29 14q13 0 31 -16l80 -86q12 -16 12 -29q0 -15 -14 -31l-80 -88q-20 -20 -29 -20q-16 0 -29 14l-88 101q-10 13 -10 26q0 15 16 31zM828 167l82 84q15 14 29 14q13 0 31 -16l80 -86q12 -16 12 -29q0 -15 -14 -31l-80 -88q-20 -20 -29 -20
q-16 0 -29 14l-88 101q-10 13 -10 26q0 15 16 31zM1511 167l82 84q15 14 29 14q13 0 31 -16l80 -86q12 -16 12 -29q0 -15 -14 -31l-80 -88q-20 -20 -29 -20q-16 0 -29 14l-88 101q-10 13 -10 26q0 15 16 31z" />
    <glyph glyph-name="guilsinglleft" unicode="&#x2039;" horiz-adv-x="631" 
d="M174 479l342 303h14v-37l-205 -266l205 -266v-37h-14z" />
    <glyph glyph-name="guilsinglright" unicode="&#x203a;" horiz-adv-x="631" 
d="M115 176h-14v37l205 266l-205 266v37h14l342 -303z" />
    <glyph glyph-name="fraction" unicode="&#x2044;" horiz-adv-x="342" 
d="M-342 -29l940 1461h84l-938 -1461h-86z" />
    <glyph glyph-name="fraction" unicode="&#x2215;" horiz-adv-x="342" 
d="M-342 -29l940 1461h84l-938 -1461h-86z" />
    <glyph glyph-name="franc" unicode="&#x20a3;" 
d="M247 357h-194v60h194v732q0 235 -103 235h-96v50h915l103 -231h-49q-59 182 -190 182l-316 -1q-102 0 -102 -235v-352h361q100 0 100 63v58h50v-342h-50v60q0 62 -100 62h-361v-281h194v-60h-194v-72q0 -235 102 -235h97v-50h-560v50h96q103 0 103 235v72z" />
    <glyph glyph-name="lira" unicode="&#x20a4;" 
d="M748 1347q-72 31 -160 31h-2q-100 0 -190 -101q-84 -93 -84 -241q0 -15 1 -30q0 -106 33 -213h380v-60h-360q12 -30 26 -60h352v-60h-321q35 -63 35 -138q0 -161 -162 -375h402q130 0 189 132l49 -1l-103 -231h-719l1 50q187 238 187 418q0 77 -34 143l-2 2h-172v60h143
q-14 31 -26 60h-135v60h113q-36 107 -36 193q0 226 123.5 347t310.5 121q75 0 185.5 -14t110.5 -34v-161h-58q-5 61 -77 102z" />
    <glyph glyph-name="peseta" unicode="&#x20a7;" horiz-adv-x="2028" 
d="M409 1384v-662q3 -9 7 -17q41 -102 108 -153q57 -44 116 -44q10 0 19 1q68 8 127 75t87 177q22 87 22 179q0 24 -1 47q-7 116 -49.5 218.5t-108.5 144.5q-56 35 -112 35q-10 0 -21 -1h-194zM1496 908h-179v-685q0 -81 34 -119q28 -31 81 -37l-71 192l49 1
q55 -130 114 -174q57 -44 127 -44h7q92 0 151 52q59 53 59 136q0 102 -259 226q-101 52 -144 112t-43 145q0 121 73 194zM1039 910q-7 -101 -48 -194q-50 -114 -141 -177.5t-190 -63.5q-100 0 -191 64q-33 22 -60 51v-305q0 -235 102 -235h97v-50h-560v50h96q103 0 103 235
v864q0 235 -103 235h-96v50h618q92 -2 181 -62q91 -62 143 -177q50 -113 51 -237h10q216 0 216 355h50v-355h259q42 19 110 20h2q54 0 133.5 -13.5t79.5 -33.5v-159h-42q-4 66 -65.5 108t-133.5 42q-64 0 -102.5 -36.5t-38.5 -96.5q0 -108 235 -220q122 -55 167.5 -117.5
t45.5 -153.5q0 -140 -83 -231q-102 -84 -228 -86q-58 0 -105 11q-28 6 -56 6q-18 0 -36 -3q-28 -5 -59 -5q-124 0 -173.5 57t-57.5 176h-1v687h-129z" />
    <glyph glyph-name="Euro" unicode="&#x20ac;" 
d="M140 372q-62 135 -76 281h-108l17 60h87v29q0 16 1 31h-71l17 60h58q14 145 76 281q81 178 226 274t298 96q43 0 87 -8q40 -10 82 -29q8 -6 16 -6q20 0 34 45h41l84 -281l-40 -1q-49 134 -138 178q-43 22 -81 32v3q-50 16 -101 16q-17 0 -34 -2q-120 -12 -226 -113.5
t-157 -273.5q-32 -104 -39 -211h706l-17 -60h-692q0 -30 2 -60h674l-17 -60h-652q17 -158 83 -298q74 -157 193 -236q102 -68 216 -69q186 3 256 91q74 91 74 185h48v-143q0 -70 -111 -127q-105 -54 -267 -56q-181 0 -325.5 98t-223.5 274z" />
    <glyph glyph-name="afii61352" unicode="&#x2116;" horiz-adv-x="2271" 
 />
    <glyph glyph-name="trademark" unicode="&#x2122;" horiz-adv-x="1497" 
 />
    <glyph glyph-name="partialdiff" unicode="&#x2202;" 
d="M232 537q0 -41 5 -79q14 -122 61.5 -230t118.5 -165q64 -53 128 -53q6 0 13 1q70 5 127.5 70.5t80.5 179.5q16 73 16 149q0 42 -5 85q-14 122 -62.5 231.5t-119.5 165.5q-65 50 -128 50h-11q-68 -5 -126 -69.5t-82 -178.5q-16 -84 -16 -157zM937 477q0 -132 -56.5 -251
t-159 -185t-214.5 -66t-214.5 66t-159 185t-56.5 251q0 131 58 251t161 185t211 65q109 0 212 -65q29 -18 54 -41q-84 235 -233.5 377t-326.5 155v55q306 0 515 -285t209 -697z" />
    <glyph glyph-name="Delta" unicode="&#x2206;" horiz-adv-x="1081" 
d="M514 1195l-406 -1072h801zM547 1434l526 -1434h-1067z" />
    <glyph glyph-name="product" unicode="&#x220f;" horiz-adv-x="1515" 
d="M511 1384q-102 0 -102 -235v-1281q0 -235 102 -235h97v-51h-560v51h96q103 0 103 235v1281q0 235 -103 235h-96v50h1419v-50h-97q-102 0 -102 -235v-1281q0 -235 102 -235h97v-50h-560v50h96q103 0 103 235v1281q0 235 -103 235h-492z" />
    <glyph glyph-name="summation" unicode="&#x2211;" horiz-adv-x="1206" 
d="M1059 548l-788 -914h635q130 0 189 182h49l-103 -232h-921v50q62 0 106 53l663 781l-663 859q-44 57 -106 57v50h921l103 -232h-49q-59 182 -189 182h-485z" />
    <glyph glyph-name="minus" unicode="&#x2212;" 
d="M87 647v140h839l1 -1v-139h-840z" />
    <glyph glyph-name="radical" unicode="&#x221a;" 
d="M181 0l-164 359l74 35l85 -185l728 1470h150v-60h-72z" />
    <glyph glyph-name="infinity" unicode="&#x221e;" 
d="M439 755q-15 103 -74 133q-46 22 -84 22q-12 0 -23 -2q-49 -10 -92.5 -44.5t-65.5 -84.5q-20 -46 -20 -90v-8q2 -48 27.5 -89t71.5 -58q29 -11 61 -11q16 0 33 3q47 10 90.5 43.5t75.5 185.5zM466 687q12 -96 94 -153q69 -48 123 -48q11 0 21 2q62 12 117.5 52t84.5 101
q26 54 26 108v11q-2 60 -35.5 108.5t-91.5 68.5q-37 13 -76 13q-22 0 -44 -4q-67 -9 -127 -62t-92 -197zM450 827q9 35 21 69q34 88 95 137t128 49t128 -48t95 -135t34 -182t-34 -182t-95 -135t-128 -48t-128 49t-95 136q-12 35 -21 70q-5 -21 -12 -41q-27 -73 -74 -113
t-99 -40t-100 41t-73.5 113.5t-25.5 149.5q0 76 25.5 149t73.5 114t100 41t99 -40t74 -112q7 -21 12 -42z" />
    <glyph glyph-name="integral" unicode="&#x222b;" horiz-adv-x="665" 
d="M-12 -281q-60 0 -60 29v159h36q1 -43 34.5 -64.5t63.5 -21.5h1q82 0 115 162q32 162 40 316l70 734l8 62q27 238 135 429.5t234 191.5q60 0 60 -29v-159h-36q-1 43 -35 64.5t-63 21.5q-71 0 -116 -155.5t-49 -363.5l-73 -767q-20 -231 -130.5 -420t-234.5 -189z" />
    <glyph glyph-name="approxequal" unicode="&#x2248;" 
d="M923 1053v-156q-63 -72 -122 -97.5t-116 -25.5q-60 0 -177.5 48.5t-176.5 48.5q-51 0 -107.5 -28t-129.5 -112v156q64 73 123 99t114 26q64 0 181.5 -49.5t172.5 -49.5q52 0 108.5 28t129.5 112zM923 705v-156q-63 -72 -122 -97.5t-116 -25.5q-60 0 -177.5 48.5
t-176.5 48.5q-51 0 -107.5 -28t-129.5 -112v156q64 73 123 99t114 26q64 0 181.5 -49.5t172.5 -49.5q52 0 108.5 28t129.5 112z" />
    <glyph glyph-name="lessequal" unicode="&#x2264;" 
d="M927 1074l-625 -359l625 -355v-167l-840 481v83l840 484v-167zM87 1v140h839l1 -1v-139h-840z" />
    <glyph glyph-name="greaterequal" unicode="&#x2265;" 
d="M87 1241l840 -484v-83l-840 -481v167l625 355l-625 359v167zM87 2v140h839l1 -1v-139h-840z" />
    <glyph glyph-name="uniF001" unicode="&#xf001;" horiz-adv-x="1073" 
 />
    <glyph glyph-name="uniF001" unicode="&#xfb01;" horiz-adv-x="1073" 
 />
    <glyph glyph-name="uniF002" unicode="&#xf002;" horiz-adv-x="1081" 
 />
    <glyph glyph-name="uniF002" unicode="&#xfb02;" horiz-adv-x="1081" 
 />
  </font>
</defs>
</svg>
